H1b Transfer Denied 2019

Petitions filed for current H-1B workers who have been counted previously against the cap, and who still retain their cap. highposthoops. Once the application is approved, the beneficiary will be able to change his/her employer at will in the next 6 years, as long as the new employer is willing to provide H1B sponsorship. A transfer requires U. In any case, The U. If a transfer is denied, the parent/guardian may appeal to the superintendent or designee in writing within ten (10) school days of denial notification for a review of the decision. From Company A, i have i-94 till Dec 2019, also approved i-140. Michigan State basketball is appealing the NCAA's decision denying Marquette transfer Joey Hauser immediate eligibility. 22:11 02/11/2019. Apr 10, 2019 · Best Balance Transfer Credit Cards. For future readers, an H-1B is an employment visa. South Carolina women's basketball transfer Destiny Littleton will not be eligible to play in the 2019-20 season after her appeal for an NCAA waiver was denied, coach Dawn Staley announced USC Women's Basketball. H1B Visa Transfer Requirements. 自从三月份拿到h1b transfer receipt之后就一直在新公司工作,想不到被deny了,原因还没有出来。appeal据说成功概率不大,貌似只有换个职位重新申请最保险,我不想. a guest Nov 2nd, 2019 57 Never. 2019 H1B Visa Reports: Denied. H-1B transfer requires atleast 1 to 3 paystubs. Denied a career at Microsoft, he returned to India and launched Snapdeal with his friend Rohit. What if my h1b transfer denied in let’s say Jan? Do I get to reapply again based on my i94 or should I leave immediately?My current job is killing me and I am looking t. If the I-94 is expired, you will be held to be out of status from the date the previous I-94 expires. My H1B transfer from Employer A to Employer B was denied, and the Emp B has filed a new H1B transfer with a more detailed job description. Article about new H1B: Trump administration toughens H-1B visa renewal process Posts from ppl in tech industry got RFE/ denice. Typically these visas are issued as joint B-1 business visit visa and B-2 'Visitor for Pleasure' (i. Information about H1B transfer process and how to apply for H1B visa transfer for H1B change of employer applicants. You will have to leave the country immediately, and for any amount of time you are deemed out-of-status ("unlawful stay"), the 3/10 year bar on reentry might apply, if the status gap is over 6/12 months. 264-BonsaiHD" Log in to bookmark. The application should be initiated before hooping to a new job, and the receipt. H1B transfer got denied on Aug 30, 2019. If a transfer is denied, the parent/guardian may appeal to the superintendent or designee in writing within ten (10) school days of denial notification for a review of the decision. 5; The initial Goals Odds is 2. The Villanova transfer will have to sit out the 2019-20 basketball season. Make sure that your employer files the proofs to support your employment as H1b Specialty occupation is the number one reason for H1B RFE and then denial. The low-stress way to find your next h1b transfer job opportunity is on SimplyHired. H1B Visa Transfer - how to transfer a current H1B visa to a new job / employer. Totally, GE Bage and Internacional B fought for 2 times before. It includes applications with status such as certified, denied, and withdrawn and so on. 自从三月份拿到h1b transfer receipt之后就一直在新公司工作,想不到被deny了,原因还没有出来。appeal据说成功概率不大,貌似只有换个职位重新申请最保险,我不想. -H1B transfer received RFE and then was DENIED on 11/6 and the lawyer received the mail denial notice on 11/16, former company has submitted revoke. H1b visa transfer denied Posted: 25 Oct 2018 Company A, i have left it (let go) in May 08, Company A revoked petition after 30 days of separation. Charges: Fail to appear on citation. DS-2019; 2) process a program transfer prior to the end date on the Form DS-2019; or 3) receive approval and an amended Form DS-2019 prior to accepting The undergrad degree was completed under F1, H1B was never approved or denied, just RFEed and processing extended for a year+. To know what are next steps incase. Last Update: 08 Oct 2019 by Balamuraliin. Michigan State is at the epicenter of the growing number of transfers in college football and basketball. Answers to your H1B visa transfer questions. 2045) now has rules that enable valid H1B visa holders to change jobs upon the filing of a new petition by the new employer as long as the individual is in lawful. Experienced Immigration Lawyer H1B Transfer Services. of course it has been increased after Trump came to power but i don't think rejection rate is beyond 5%. USCIS site says they are still reviewing it, but DHS site shows they denied my transfer on the 12th. Indexed more than 3. 6) Got approval (I797B) on 21st march 2008. H-1B visa status is valid for a maximum of six years: maximum three-year at one time, but may be extended multiple times You may extend your H1B status annually in one-year increments if your green card process was started at least 365 days prior to the day when you reach the six-year limit. Visitors Visa Interview is one of the basis whether your visa application gets approved or not. I am transferring to a new employer. Raj files an H1B transfer and resigns from Company and starts working with Company B as from the day the H1B transfer is filed as per AC 21 permission. Is it possible to go back to my STEM OPT, use the remaining time, and then return to H1B status? Answer Once a person has started working pursuant to STEM OPT and then changes to H1B status, any remaining STEM OPT time generally is abandoned. Boeing chief executive Dennis Muilenburg faced another round of tough questions on Wednesday from U. My current employer filed for my H1 and it got picked in the lottery. - Ian Brossat, porte-parole du PCF, adjoint à la maire de Paris en charge du logement. H1B transfer can start working on receipt with no 240 day limit. , the employer sponsoring the H-1B visa does not appear to be a real, established, operating U. It is often perceived as a negative response from USCIS, but it is merely an effort to gain more information about an applicant before a decision is made. The visa applications might have been denied. Just give all the docs that you gave to "B" [Don't even mention anything about "B" to "C"]. H1B Transfer Denied. Learn about possible University of Waterloo transfer credit for courses from for admission consideration and will consider possible transfer credits for Pre-U Jul 3, 2019 The University of Waterloo Students who are denied admission are encouraged to apply for transfer admission for a future semester. I was in H1B transfer process from Company A to B. SEVIS Transfer If you have an I-20 from a different U. Dobrofsky / Tippi Dobrofsky. Description: Additional Information. He won’t be eligible until 2020. Thousands are also getting denied, prompting them to go home or revise their career plans. The second most H1B rejections are faced by Cognizant whose almost 32% H1B applications are denied. These Advanced Degree H1B Visa Cap Count Statistics 2020 – 2019; Top 10 Reasons for H1B Visa RFE’s; H1B Visa – What Happens After H1B Visa Approval; These days getting selected in the lottery is just half the battle. The letter said the US doesn't have the capacity to train enough people with required high-tech skills, and without a change in approach, this would hinder growth. Transferred H1-B from A --> B H1-B Transfer for company B received a NOID (Notice of Intention for Denial) on Oct 1. So, premium processing is open as described earlier. I-94 is until Sept 5, 2020. Gratis voertuighistorierapport. If you have filed H1B in regular processing, we suggest to upgrade to premium processing so that you can get approval before October and can start working on Oct 1. This page shows the no. Published 1 November 2019. More than twice as many H-1B applications were rejected in November compared with the same H-1B visas are reserved for "specialty occupations," which means a job that requires at least a bachelor's degree. NCAA denies South Carolina's waiver for Littleton. Latest transfer news 2019[coutinho to arsenal,dybala to manchester united]. H1b Extension Processing Time. Not a member of Pastebin yet? restful-architecture. 7 million, was part of a conglomerate that would, less than two years later, transfer 300,000 euros, about $334,000, to. If you do not understand that you have a problem, consult with an attorney in person to discuss your options. immigration officials rejected his application for an H-1B visa, putting an end to those dreams. My new employer B is refilling the H1B transfer petition. Nearly 1 in 4 Americans without a credit card fail to qualify. Refill XPress · Transfer Prescriptions · New H-E-B® Pharmacy App. There could be seemingly minor issues such as payment of an incorrect amount for processing fees or more complex grounds relating to the US employer, the employee or the conditions of employment. The CCTV video of the smack-down shows the business owner finish serving his customer, then turn his attention to the. Alabama athletic director Greg Byrne and coach Nate Oats released a joint statement after the ruling was announced. H1B transfer Denied - i-485 Applied. what is the h1b rejection rate in 2019. Jordan announced its intention last year to re-assume full control of two enclaves let to Israel under the 1984 peace treaty, but Haaretz reported that secret negotiations have been underway. (I am assuming that "Denial could be becasue of client letter was not furnished). Friday, 01 November 2019 19:14 Armenian TV shows - Kisabac Lusamutner. 2019) (x86-x64). Killing Julian Assange: Justice Denied When Exposing Official Wrongdoing. Boeing chief executive Dennis Muilenburg faced another round of tough questions on Wednesday from U. USCIS can even move back the approval H1B transfer to RFE. Audio ID : 2 Format : AC-3 Format/Info : Audio Coding 3 Commercial name mode : Lossy Stream size : 223 MiB (7%) Title : Adopt. Dino Dai Zovi, the head of mobile security at the credit card processing company Square, spoke of the need for security software with effective user interfaces which keeps pace with advances in technology. , the employer sponsoring the H-1B visa does not appear to be a real, established, operating U. Here are other changes to the H-1B system that are liable to impact both who and how you hire. H1B Transfer Denied. And i have applied for New H1B file transfer with company C on April 2019. The law allows H-1B transferring employees to start to work for a new employer upon filing the H petition with the USCIS. H1B transfer frequently asked questions (FAQs). Yours is a case of a simple H1 transfer and it doesn't fall under any quota. Tennessee transfer Evina Westbrook had a waiver that would have allowed her to play for the UConn women’s basketball team denied, coach Geno Auriemma said Friday. Larry Tanenbaum said two months before the Raptors' victory in the Finals in June that if the team won, he would bring them. Just give all the docs that you gave to "B" [Don't even mention anything about "B" to "C"]. H-1B Transfer Before Start Date. mkv3,153 MB. This is a true story. Alabama athletic director Greg Byrne and coach Nate Oats released a joint statement after the ruling was announced. So, in the meantime, I would like to check what my. On April 29, 2015, the Departments of Labor and Homeland Security jointly published new regulations governing the H-2B Temporary Non-agricultural Labor Certification Program. Alex Marquez sealed the 2019 Moto2 world championship by finishing second to Brad Binder and beating his other main rival Tom Luthi in the Malaysian Grand Prix. Read all news including political news, current affairs and news headlines online on H1b Visa today. According to the Report, in 2013, H-1B cases appealed to the AAO were sustained (meaning that the government's denial was overturned). 7 2019 H1 report 2019 Copenhagen – 14 August. I came to US on Nov 2014 on H1B VISA, worked for a company for 9 months and switched to another company with Receipt (biggest blunder ever made) on Sept 2015. "In the first quarter of FY 2019, USCIS adjudicators denied 18% of H-1B petitions for 'continuing' employment, often for a company's existing employees, compared to denying only 3% of H-1B petitions for continuing employment in FY 2015 (and only 5. my husband came here in usa on h1 visa on april 2008, he got a project and started his work in june 2008, in may 2009 he applied for visa transfer and joined the new company just after they filed the transfer. DELOITTE CONSULTING LLP has filed 30192 LCAs (Labor Condition Applications) and 2182 labor certifications since 2017 till 2019. Jordan announced its intention last year to re-assume full control of two enclaves let to Israel under the 1984 peace treaty, but Haaretz reported that secret negotiations have been underway. I am holding a valid H1B visa until Jan 2007 for Company A, i started working for Company B up on submiiting the documents to Vermount Service Center and Company B is running my Payoll every 15 days without problem. Employer is planning to appeal on denial case. H1b visa transfer denied Posted: 25 Oct 2018. H1B transfers could be denied, but USCIS will provide some sort of reason as to why this happened. So many applications are received that if you. A DW data analysis reveals that the majority of applications for a German visa come from Opinion: For Germany, India is a partner with potential 02. of course it has been increased after Trump came to power but i don't think rejection rate is beyond 5%. H1 B Tranfer Denied, Can It Be Re-Filed Hi, My husband filed a transfer of H1(valid till Oct 2010) to Company A and it got denied on Sept 21 2009. From Company A, i have i-94 till Dec 2019, also approved i-140. Assuming you have joined the new employer on H1B Transfer receipt: #1 Transfer filed after i94 expiry. 7 2019 H1 report 2019 Copenhagen – 14 August. Learn how long the H1B RFE response time is in 2019. Legal has not yet disclosed the reject reason. Washington, D. Amazon, for example, saw a denial rate. H-1B visa status is valid for a maximum of six years: maximum three-year at one time, but may be extended multiple times You may extend your H1B status annually in one-year increments if your green card process was started at least 365 days prior to the day when you reach the six-year limit. I94 is valid till 2020. in respectable—looking bank transfers, and clean money finds its way back to the drug dealers from the money—laundering gang or anyone else. 自从三月份拿到h1b transfer receipt之后就一直在新公司工作,想不到被deny了,原因还没有出来。appeal据说成功概率不大,貌似只有换个职位重新申请最保险,我不想. 14 may 2019. The second most H1B rejections are faced by Cognizant whose almost 32% H1B applications are denied. Geno Auriemma slams NCAA after Evina Westbrook's transfer waiver denied Cassandra Negley. RELEASE DATE:01 Nov 2019 (Germany). Do I need to get a new visa next time I travel 20. 2:00 amAtletico denied top spot after Costa squanders penalty. In first quarter of 2019, continuing H1B petitions were denied at a rate of 18 percent. H-1B Transfer Denied. And regarding suing your employer, US goverment. H1b Extension Processing Time. Last Update: 08 Oct 2019 by Balamuraliin. Fitbit is being acquired by Google for about $2. 2 days ago · RBI will transfer Rs 1. H1B Transfer PP Nebraska Center 3天直批(附经验) nchen27 2019-9-28: 7518: charleszhou 3 天前: 转专业 Transfer PP Approve: f2381569 2019-6-8: 8762: SP94 3 天前: 转专业H1B transfer WAC19236XXXXX approve 大米+7: MagsZ 2019-7-13: 2634: SP94 3 天前: 转专业h1b transfer approve 大米+2: yaoqian19910216 2019-8-17: 7703: SP94 3 天前. To recap, here are the best credit cards for 2019. The latest student loan debt statistics show that more than 99% of people who applied for public service loan forgiveness have been rejected. First published on October 31, 2019 / 4:09 AM. Always file H1B transfer with PREMIUM processing. H1B Visa Denial Increase By 300% In 4 Years; Cognizant #1 In H1B Visa Denial Cases, Google Has Least Denials We have recent news from the U. 1 day ago · Actions on H. For B1,B2 Visa Interview lessons contact: [email protected] The university announced today the NCAA has denied its request to grant a waiver for immediate eligibility to Quinerly, a sophomore with three years of eligibility after his offseason transfer. Do I need to move put of country and come back again after it is approved or I cam stay in USA until second petition is. This "filing" may be established with FedEx or UPS confirmation of delivery of the petition or, more conservatively, with the actual USCIS hard-copy receipt. H1B transfer petition is denied. The average salary of those job offerss is $96,405. Spoilers: on off. I am maxing out my roth Ira and also I am investing beyond my employers match in 401k. 709 Transfer characteristics : BT. Register Free To Apply Various H1b Transfer Job Openings On Monster India !. Will my H1B amendment denial affect the H1B transfer? I am curious to know what could be the reason. I'm currently on H1b working with Employer A. However if the employers I-129 petition is denied your H-1B status will be terminated and you will have to return to your home. H-1B 2019-2020 Chances of Selection. H1B Visa Transfer – Changing Employers. Experts say the data reflects the Trump administration's promised crackdown, but how much President Donald Trump's promised crackdown on the H-1B visa had a dramatic impact last year, according to recently released federal data that shows immigration. Friday, 01 November 2019 19:14 Armenian TV shows - Kisabac Lusamutner. This is commonly known as a port, or porting H-1B employment authorization. If Company A has not withdrawn Raj's. Watch The Early Show - Season 200910, Episode 1013 - H1N1 Vaccine Shortages?: Harry Smith spoke with Dr. 76 lakh crore to the government following a recommendation by the Bimal Jalan-led committee. If the H1B transfer petition is denied, the H1B nonimmigrant worker may be left out of status. Hougang United. In 2019, the US saw a 13. An employer can petition for an H-1B transfer to the USCIS on behalf of a candidate any time in the year and this is not subject to any quota. H1B Extension-Transfer Denied has 1,066 members. Walker will be. Fts 19 mod PES 2019 offline winter transfers update ✔. H1b Transfer Denial If this is your first visit, be sure to check out the FAQ by clicking the link above. South Carolina announced Thursday that the waiver request of transfer Destiny Littleton, as well as the subsequent appeal, was denied by the NCAA. We checked in the test environment, where we didn't delete the groups. you must obtain a passport from. The Commodores appealed to the NCAA for a transfer waiver that would have granted him immediate eligibility for the 2019 season, but Langham announced Tuesday via Twitter that the appeal was denied. Check out our 7 steps for getting H1B and starting working on Oct 1 with H1B. If your current H1B from Employer A is still valid, you can keep working with them (or go back to them if you already moved to Employer B, based on transfer receipt number). H1 B Transfer Denied. H-1B Transfer Denied. The H1B visa stamp in my passport is still valid for about two years. just got a captcha transfer (24 hr captcha)into nowherenow it's there, new message on bottom. "In the first quarter of FY 2019, USCIS adjudicators denied 18% of H-1B petitions for 'continuing' employment, often for a company's existing employees, compared to denying only 3% of H-1B petitions for continuing employment in FY 2015 (and only 5. what are my option to stay here as i have long term project. When an employee renews or transfers his H1B visa or change work location under some circumstances, he will also file a new LCA application. The main consequence is, petition pile up and a potential for delayed approval or denial of cap subject petitions. New name and faster connectivity. Hi, My h1b extension was denied by USCIS on 5/30/2019. employer and foreign employee to meet specific rules. If H4 to H1B is done via premium processing, you can get approval with few weeks than few months. Appealing a H1B denial is possible but the chances of approval are very low. Then got job with client from Employer C and filed H1B Amendment so received RFE today. The H-1B visa is a specialty occupation, work visa. H1B extension Denied after 6 years with I140 Approved Have an Approved I140 but my H1B extension after 6 years application for next 3 years was denied. lawmakers who accused the company of a "lack of candor" over the crashes. I was in H1B transfer process from Company A to B. company with a capacity to hire, pay and provide sufficient specialty occupation work to the H-1B worker. However if the employers I-129 petition is denied your H-1B status will be terminated and you will have to return to your home. Capgemini has the lowest H1B approval rate at 60% which means that their 40% H1B applications are denied on average. John’s junior guard Rasheem Dunn’s waiver for immediate eligibility was denied, sources told The Post, a decision that came as a surprise to the school. H1B Extensions denied 2 times & got approved 3rd time under Consular processing. "Our obligation is, not because of you who know that you made this up, but because of the public's interest, to say that we will use all legal mechanisms to defend ourselves from the state terror. District Judge Gene E. H-1B petitions that are not subject to the FY 2019 cap. Unlawful presence starts on denial after i94 H1B transfer is a new petition to change your H1B employer. Westbrook, a 6-foot guard, transferred to UConn in May after Holly Warlick was fired as Tennessee's coach. Audio ID : 2 Format : AC-3 Format/Info : Audio Coding 3 Commercial name mode : Lossy Stream size : 223 MiB (7%) Title : Adopt. Konyaspor Teknik Direktörü Aykut Kocaman: Şimdiden transfer, takımdan gidecekler-gelecekler konularını konuşmanın kimseye bir yararı yok. H1B Transfer approved with No I94 Posted: 10 Oct 2019 Dear Lawyer, My Current Visa & I-94 Valid until July 2020. H1B transfers are not counted towards the regular annual H1B quota and can therefore can be filed and applied for at any time of the year, (when transferring an H1B visa Once the application for H1B visa transfer is submitted to the USCIS, it normally takes 3 to 8 weeks for the transfer to take place. Manitoba/Les belles lettres). Exploring H-1B visa alternatives could be a solution to avoid long wait times. Chances of H1b Extension Rejection or H1B Extension Denial – When petitioning Employer fails to meet requirements – A lot of times H1B visa extension is denied because the petitioner, i. Filled H1b transfer under premium with employer B (consulting) on May 6th, Started working on receipt then got RFE for an employee-employer relationship, responded bac. Some of the H1B petitions are denied by USCIS, it could be for a variety of reasons. H1B Transfer Denied. October 31, 2019. H1B transfer got denied on Aug 30, 2019. Therefore, make sure to collect all the right documents and fulfill all the requirements so that you can. I was reading the post in this forum, and i understand that i can transfer the H1B before OCT 1st but it will not be a transfer, basically i have to file for a new H1B and since i have already counted against the quota, i will be exempt from the quota. txt 270 B, Holiday. But, there's no guarantee that this application will be successful. H1B Transfer Denied – i94 expired, Old H1B expired You can re-file h1B transfer but, you cannot start working as your current status is “Out of status’ after denial. What should I do if my H1b transfer got denied? My H1b transfer application was recently denied because Immigration considered that my position is not a specialty occupation. 16 hours ago · KNOXVILLE, Tenn. Walker will be. Concerns have mounted over the AAO's autonomy and whether it is offering an independent review of a denied case, or simply rubber-stamping the USCIS denial. While this sounds tedious, you have a few benefits working in your favor since you've already received a H-1B visa with your first employment in the US. If you've been denied for credit, you're not alone. Gemini shall transfer the digital assets to Holland and Knight at an address provided by Holland. highposthoops. KNOXVILLE, Tenn. , elections and the peaceful transfer of power are quaint notions of yesterday's republic. – February 2019, went to india, got stamped no issues – March 15, 2019 applied for H1b transfer, and started working for the new employer (consultancy) – July 1st, 2019 (around this date) converted application to premium. 6 min read. The university announced today the NCAA has denied its request to grant a waiver for immediate eligibility to Quinerly, a sophomore with three years of eligibility after his offseason transfer. The match of GE Bage vs Internacional B in Brazil Copa Gaucho is started at 2019-11-1 07:03. she will sit out the 2019-20 season and have two years of eligibility remaining. RANDSTAD TECHNOLOGIES LP has filed 184 LCAs (Labor Condition Applications) and 112 labor certifications since 2017 till 2019. Micah Potter isn’t giving up his fight to be eligible next month when the University of Wisconsin men’s basketball team opens its 2019-20 season. So, in the meantime, I would like to check what my. Can it be reapplied as cap exempt after few months One year back my 2nd H1B extension is denied due to lack of complex roles and responsibilities on. in respectable—looking bank transfers, and clean money finds its way back to the drug dealers from the money—laundering gang or anyone else. The H-1B visa is a specialty occupation, work visa. This happens because you might not have an advanced degree or maybe your diploma is not the right fit for the position. Even so, a new day is dawning for employers of highly skilled immigrants. H-1B transfer requires atleast 1 to 3 paystubs. Please note that this page does not hosts or makes available any of the listed filenames. Within 60 days of H1B unemployment period, I found another employer who applied for H1B transfer. Yes, you can file new H1B transfer with new employer even after one H1B transfer denial. high school, college, university, or English language school, you may be Please see your admissions information for how to request a SEVIS Transfer. Here are common reasons why you may be denied, and some helpful tips to improve your approval chances. How much grace period do I have? 2. H1B transfer petition is denied. So, in the meantime, I would like to check what my fallback options are. Appealing a H1B denial is possible but the chances of approval are very low. A candidate can transfer and start working for the new employer once the H-1B transfer has been approved by the USCIS. H-1B visa petition denials rose from 16 percent to 22 percent during the third and fourth quarters of FY 2017, while the number of RFEs for H-1B visa petitions more than doubled, soaring from 28,711 to 63,184 according to the data obtained by the. I moved from Company A to Company B and they initiated the Transfer. Legal has not yet disclosed the reject reason. Hi, I was denied H1B petition transfer to new employer. H1B Transfer Denied. H1B transfer Denied - i-485 Applied. The responsible officer of the program to which the participant seeks to transfer is required to verify the participant's visa status and eligibility, to issue a new Form DS-2019 reflecting the transfer, and to obtain the release of the participant from the current responsible officer, who indicates approval of the transfer by completing and. Troyen Brennan about the high demand for the H1N1 flu vaccine. Feb 22, 2019 · The administration is delaying and denying more H-1B visa applications than at any time since at least 2015, according to a Reuters report Friday. October 31, 2019. H264-FGT Language : English Service kind : Complete. see illustration below. What should I do if my H1b transfer got denied? My H1b transfer application was recently denied because Immigration considered that my position is not a specialty occupation. A transfer requires U. Home » Travel Blog » Travel Guides » USA B2. xikunlun001 发表于 2019-6-26 23:07 好像revoke之后不能办transfer,会不会这是你denied原因。 revoke之后有60天可以让新公司重新给. This term is typically used, when one plans to change current employer and join another employer. My h1b transfer was denied After lawyer submitting RFE and…. The Villanova transfer will have to sit out the 2019-20 basketball season. WRITER:Neal H. Koil - Dosa Ini Tak Akan Berhenti (Live at Blackandje Fest Outdoor Bulungan 2019). H1B transfer petitions can be denied for many reasons. There could be seemingly minor issues such as payment of an incorrect amount for processing fees or more complex grounds relating to the US employer, the employee or the conditions of employment. USCIS can even move back the approval H1B transfer to RFE. Immigration Lawyer Services and Complete Do it Yourself How do I file an H-1B Visa Transfer petition? The first step is to prepare and file the LCA If the H1B visa petition is denied, then the foreign national worker must stop employment with the. employer and foreign employee to meet specific rules. 77 GB MB, Files: 3, Magnet, Torrent, Downloaded from www. Would it be possible for h1b visa stamping with approved petition if h1b transfer has RFE? ImmiGeek March 20, 2019, 3:35am #7 To have H1B visa stamped, you must have an active, approved, valid H1B visa on hand at the time of visa interview/submission. USCIS can even move back the approval H1B transfer to RFE. Michigan State basketball is appealing the NCAA's decision denying Marquette transfer Joey Hauser immediate eligibility. 77 GB MB, Files: 3, Magnet, Torrent, Downloaded from www. 28 juni 2019. Plavsic, a redshirt freshman. 2019 Overwatch League offseason roster tracker. ey has denied it needed to report in the uk. My h1b transfer was denied After lawyer submitting RFE and…. Latest News. For B1,B2 Visa Interview lessons contact: [email protected] Money transfer rates are great also. 1H NMR spectra recorded in CD3CN reveal that 36+ represents a promising host to accommodate a variety of guests bearing By using either 1H NMR spectroscopy or isothermal titration calorimetry (ITC), the association constants (Ka) of the corresponding inclusion. Ghostwriter. From Company A, i have i-94 till Dec 2019, also approved i-140. Learn how long the H1B RFE response time is in 2019. According to Scott Tompsett, an attorney representing the junior forward, UW has filed a request for reconsideration to the NCAA’s ruling that. And regarding suing your employer, US goverment. You often hear people talking about changing from F1 to H1B status, and rightfully so. "If they want me here, I would love to be For Bahl, the forced change of direction worked out well. I read on the USCIS website that the H1 status starts from October 1st. Manitoba/Les belles lettres). The transfer from Ohio State will have to sit out another semester. He said that efforts were on in full swing to ensure that not a single deserving person is denied his or her quota of rice. xikunlun001 发表于 2019-6-26 23:07 好像revoke之后不能办transfer,会不会这是你denied原因。 revoke之后有60天可以让新公司重新给. Typically these visas are issued as joint B-1 business visit visa and B-2 'Visitor for Pleasure' (i. H1b transfer news. H1B Visa Transfer - how to transfer a current H1B visa to a new job / employer. A candidate can transfer and start working for the new employer once the H-1B transfer has been approved by the USCIS. Audio ID : 2 Format : AC-3 Format/Info : Audio Coding 3 Commercial name mode : Lossy Stream size : 223 MiB (7%) Title : Adopt. Not a member of Pastebin yet? restful-architecture. Some of the H1B petitions are denied by USCIS, it could be for a variety of reasons. H1B Visa Salary Database 2019 - By Employer, Job, or City. Recently, my friend got into an unfortunate situation where his H1b extension petition was denied. Can the new employer file for my H1 transfer immediately after my H1 approval i. Even so, a new day is dawning for employers of highly skilled immigrants. 15 hours ago · Tennessee Volunteers athletic director Phil Fulmer is not happy after freshman basketball player Uros Plavsic was denied an immediate eligibility waiver by the NCAA. B12 � The global economy in 2019 is on course for its weakest year of growth since the financial crisis, according to new IMF estimates. Answers to your H1B visa transfer questions.